Thomson THT702 DVB-T2

boris1974
Повідомлень: 4
З нами з: 16 листопада 2012, 14:56

Re: Thomson THT702 DVB-T2

Повідомлення boris1974 »

В Fat32 c флешки жрет MKV и 720р и 1080р. звук есть везде с десяток HD клипов пробовал.
В ntfs не видит ни флехи 32Гб ни внешнего HDD.
TSку видео тянет норм без тормозов, звука нет.


Аватар користувача
Олег Бондаренко
Администратор
Повідомлень: 5572
З нами з: 21 лютого 2012, 19:58
Дякував (ла): 60 разів
Подякували: 82 рази

Re: Thomson THT702 DVB-T2

Повідомлення Олег Бондаренко »

первое впечатление о тюнере - не порадовал, напоминает самый обычный Strong SRT8502 - те же яйца, но покрашены. Возможно + этой модели будет в процессоре. Тюнер без антенны уже выдаёт сигнал - К 20%, М 30% - тоже самое в Strong SRT8502, менюшка такая же как у Стронга, добавили дисплей и скарт. не удивил томсон, чем-то новым. Ожидал совсем другой ресивер. Для себя сделал вывод, переплюнуть в качестве Тримакс - не удалось!


Аватар користувача
SanyaCENTR
Любопытный
Повідомлень: 63
З нами з: 21 липня 2012, 22:38

Re: Thomson THT702 DVB-T2

Повідомлення SanyaCENTR »

а что с АС-3 ???


Аватар користувача
Олег Бондаренко
Администратор
Повідомлень: 5572
З нами з: 21 лютого 2012, 19:58
Дякував (ла): 60 разів
Подякували: 82 рази

Re: Thomson THT702 DVB-T2

Повідомлення Олег Бондаренко »

ещё не успел потестить :)


Аватар користувача
SanyaCENTR
Любопытный
Повідомлень: 63
З нами з: 21 липня 2012, 22:38

Re: Thomson THT702 DVB-T2

Повідомлення SanyaCENTR »

ждем!!!


boris1974
Повідомлень: 4
З нами з: 16 листопада 2012, 14:56

Re: Thomson THT702 DVB-T2

Повідомлення boris1974 »

Все читает и ААС и АС3 вот данные воспроизведенных файлов.


I:\Video\KYPbEP.2011.P.HDRip.avi
General
Complete name : I:\Video\KYPbEP.2011.P.HDRip.avi
Audio #1
ID : 1
Format : AC-3
Format/Info : Audio Coding 3
Mode extension : CM (complete main)
Format settings, Endianness : Big
Codec ID : 2000
Duration : 1h 35mn
Bit rate mode : Constant
Bit rate : 384 Kbps
Channel(s) : 6 channels
Channel positions : Front: L C R, Side: L R, LFE
Sampling rate : 48.0 KHz
Bit depth : 16 bits
Compression mode : Lossy
Stream size : 261 MiB (19%)
Alignment : Split accross interleaves
Interleave, duration : 42 ms (1.00 video frame)
Interleave, preload duration : 500 ms



I:\Video\HD\Zakon.doblesti.2012.D.BDRip_[Youtracker].mkv
General
Audio #2
ID : 2
Format : AC-3
Format/Info : Audio Coding 3
Mode extension : CM (complete main)
Format settings, Endianness : Big
Codec ID : A_AC3
Duration : 1h 49mn
Bit rate mode : Constant
Bit rate : 448 Kbps
Channel(s) : 6 channels
Channel positions : Front: L C R, Side: L R, LFE
Sampling rate : 48.0 KHz
Bit depth : 16 bits
Compression mode : Lossy
Stream size : 351 MiB (24%)
Language : Russian
Default : Yes
Forced : No
I:\Video\HD\HD clips\Will Am ft. Jennifer Lopez boclua - The@ ama 11 Live 720p.ts
General #1
Audio #1985
ID : 1985 (0x7C1)
Menu ID : 1 (0x1)
Format : AC-3
Format/Info : Audio Coding 3
Mode extension : CM (complete main)
Format settings, Endianness : Big
Codec ID : 129
Duration : 4mn 26s
Bit rate mode : Constant
Bit rate : 384 Kbps
Channel(s) : 6 channels
Channel positions : Front: L C R, Side: L R, LFE
Sampling rate : 48.0 KHz
Bit depth : 16 bits
Compression mode : Lossy
Stream size : 12.2 MiB (7%)
Language : English

Но на новом телеке LG звук есть ,на старом Philips нет.
Есть подозрения что старый фил не поддерживает HDMI DOLBY Digital.
Либо даунмикс в стерео на свои же динамики.


Аватар користувача
Олег Бондаренко
Администратор
Повідомлень: 5572
З нами з: 21 лютого 2012, 19:58
Дякував (ла): 60 разів
Подякували: 82 рази

Re: Thomson THT702 DVB-T2

Повідомлення Олег Бондаренко »

а проверьте скольки канальный звук на AAC и AC3 - есть подозрение, что читает только 2-х канальные файлы


Аватар користувача
SanyaCENTR
Любопытный
Повідомлень: 63
З нами з: 21 липня 2012, 22:38

Re: Thomson THT702 DVB-T2

Повідомлення SanyaCENTR »

Но на новом телеке LG звук есть ,на старом Philips нет.
Есть подозрения что старый фил не поддерживает HDMI DOLBY Digital.
Либо даунмикс в стерео на свои же динамики.[/quote]

получается,если подключить к обычному телеку через 3RCA то звука не будет???


layman
Завсегдатай
Завсегдатай
Повідомлень: 143
З нами з: 31 липня 2012, 13:25

Re: Thomson THT702 DVB-T2

Повідомлення layman »

Получается,что распознает и читает его телик,а не Томсон,иначе и старый Филипс бы зазвучал).


Аватар користувача
Олег Бондаренко
Администратор
Повідомлень: 5572
З нами з: 21 лютого 2012, 19:58
Дякував (ла): 60 разів
Подякували: 82 рази

Re: Thomson THT702 DVB-T2

Повідомлення Олег Бондаренко »

я тестил на китайском SUPRA и BBK - звук есть, вечером будет видео со звуком на SUPRA на видео звук AAC и АС3


tempico
Повідомлень: 3
З нами з: 15 листопада 2012, 11:53

Re: Thomson THT702 DVB-T2

Повідомлення tempico »

Есть ли разница в качестве картинки между RCA и SCART ?


Аватар користувача
Олег Бондаренко
Администратор
Повідомлень: 5572
З нами з: 21 лютого 2012, 19:58
Дякував (ла): 60 разів
Подякували: 82 рази

Re: Thomson THT702 DVB-T2

Повідомлення Олег Бондаренко »

deZL_FowS4s


Rango
Новичок
Повідомлень: 37
З нами з: 09 березня 2012, 19:35

Re: Thomson THT702 DVB-T2

Повідомлення Rango »

Олег Бондаренко писав:deZL_FowS4s
интересно, какая версия и дата прошивки ?


Охрим
Уважаемый форумчанин
Уважаемый форумчанин
Повідомлень: 247
З нами з: 04 квітня 2012, 21:22

Re: Thomson THT702 DVB-T2

Повідомлення Охрим »

Олег Бондаренко писав:на видео звук AAC и АС3
Звук AAC и любой "Стронг" легко декодирует. Все проблемы были раньше только со звуком АС3. Поэтому в видео надо было больше на АС3 внимание обратить, а не на AAC :)


boris1974
Повідомлень: 4
З нами з: 16 листопада 2012, 14:56

Re: Thomson THT702 DVB-T2

Повідомлення boris1974 »

Охрим.
Я же выложил данные воспроизведенных файлов,неужели не видно АС3 6 channels. Звук есть.


Відповісти

Повернутись до “Thomson THT702”