Strong 8502

Аватара пользователя
Олег Бондаренко
Администратор
Сообщения: 5529
Зарегистрирован: 21 фев 2012, 19:58
Благодарил (а): 52 раза
Поблагодарили: 77 раз

Re: Strong 8502

Сообщение Олег Бондаренко »

надо смотреть что за файлы, может там битрейт или ещё что....



rey6805
Новичок
Сообщения: 40
Зарегистрирован: 02 сен 2012, 21:59

Re: Strong 8502

Сообщение rey6805 »

надо смотреть что за файлы, может там битрейт или ещё что....

Вот, пожалуйста.


General
Complete name : E:\15-Territorija_zabluzhdenij-19.02.2013.avi
Format : AVI
Format/Info : Audio Video Interleave
File size : 1.09 GiB
Duration : 1h 36mn
Overall bit rate : 1 618 Kbps
Writing application : VirtualDubMod 1.6.0.0 SURROUND (build 2560/release)
Writing library : VirtualDubMod build 2560/release

Video
ID : 0
Format : MPEG-4 Visual
Format settings, BVOP : 1
Format settings, QPel : No
Format settings, GMC : No warppoints
Format settings, Matrix : Default (H.263)
Muxing mode : Packed bitstream
Codec ID : DX50
Codec ID/Hint : DivX 5
Duration : 1h 36mn
Bit rate : 1 480 Kbps
Width : 704 pixels
Height : 528 pixels
Display aspect ratio : 5:4
Original display aspect ratio : 4:3
Frame rate : 25.000 fps
Color space : YUV
Chroma subsampling : 4:2:0
Bit depth : 8 bits
Scan type : Progressive
Compression mode : Lossy
Bits/(Pixel*Frame) : 0.159
Stream size : 1 018 MiB (91%)
Writing library : DivX 6.8.5 (UTC 2009-08-20)

Audio
ID : 1
Format : MPEG Audio
Format version : Version 1
Format profile : Layer 3
Mode : Joint stereo
Mode extension : MS Stereo
Codec ID : 55
Codec ID/Hint : MP3
Duration : 1h 36mn
Bit rate mode : Constant
Bit rate : 128 Kbps
Channel(s) : 2 channels
Sampling rate : 48.0 KHz
Compression mode : Lossy
Stream size : 88.0 MiB (8%)
Alignment : Split accross interleaves
Interleave, duration : 40 ms (1.00 video frame)
Interleave, preload duration : 500 ms
Writing library : LAME3.99r
Encoding settings : -m j -V 4 -q 3 -lowpass 17 -b 128



vborgman
Форумчанин
Форумчанин
Сообщения: 205
Зарегистрирован: 14 май 2013, 18:02
Благодарил (а): 1 раз
Поблагодарили: 3 раза

Re: Strong 8502

Сообщение vborgman »

Здравствуйте!
Меня интересует вот такой вопрос. Существует ли у 8502, прошитого последней прошивкой, люфт, когда при слабом сигнале каналы он уже сканирует, но еще не опознает? Чтобы вместо названий высвечивались только номера, как на 8500.



Ответить

Вернуться в «Strong SRT 8502»